[Login] or [Signup]
Login
Username:
Password:
[Signup]
[Recover Account]



Search










Torrent Details For "American.Ninja.3.Blood.Hunt.1989.UNCUT.BDRip.x264-..."

American.Ninja.3.Blood.Hunt.1989.UNCUT.BDRip.x264-...

Download this torrent
Health:
Seeds: 0
Leechers: 0
Completed:
Last Checked: 22-06-2016 18:12:59
Tracked: EXTERNAL



Details
Name:American.Ninja.3.Blood.Hunt.1989.UNCUT.BDRip.x264-...
Description:
Video
ID : 1
Format : AVC
Format/Info : Advanced Video Codec
Format profile : High@L3.1
Format settings, CABAC : Yes
Format settings, ReFrames : 5 frames
Codec ID : V_MPEG4/ISO/AVC
Duration : 1h 29mn
Bit rate : 1 666 Kbps
Width : 720 pixels
Height : 388 pixels
Display aspect ratio : 1.85:1
Frame rate mode : Constant
Frame rate : 23.976 (24000/1001) fps
Color space : YUV
Chroma subsampling : 4:2:0
Bit depth : 8 bits
Scan type : Progressive
Bits/(Pixel*Frame) : 0.249
Stream size : 1.04 GiB (91%)
Writing library : x264 core 148 r2665 a01e339
Encoding settings : cabac=1 / ref=5 / deblock=1:-2:-2 / analyse=0x3:0x133 / me=umh / subme=8 / psy=1 / psy_rd=0.90:0.00 / mixed_ref=1 / me_range=16 / chroma_me=1 / trellis=1 / 8x8dct=1 / cqm=0 / deadzone=21,11 / fast_pskip=0 / chroma_qp_offset=-2 / threads=12 / lookahead_threads=2 / sliced_threads=0 / nr=0 / decimate=1 / interlaced=0 / bluray_compat=0 / constrained_intra=0 / bframes=3 / b_pyramid=2 / b_adapt=2 / b_bias=0 / direct=3 / weightb=1 / open_gop=0 / weightp=2 / keyint=250 / keyint_min=23 / scenecut=40 / intra_refresh=0 / rc_lookahead=50 / rc=crf / mbtree=1 / crf=19.0 / qcomp=0.60 / qpmin=0 / qpmax=69 / qpstep=4 / ip_ratio=1.40 / aq=1:1.00
Language : English
Default : Yes
Forced : No
Color range : Limited
Matrix coefficients : BT.709

Audio
ID : 2
Format : AAC
Format/Info : Advanced Audio Codec
Format profile : LC
Codec ID : A_AAC
Duration : 1h 29mn
Bit rate : 171 Kbps
Channel(s) : 2 channels
Channel positions : Front: L R
Sampling rate : 48.0 KHz
Frame rate : 46.875 fps (1024 spf)
Compression mode : Lossy
Delay relative to video : 9ms
Stream size : 110 MiB (9%)
Language : English
Default : Yes
Forced : No

Menu #1
00:00:00.000 : en:00:00:00.000
00:07:52.347 : en:00:07:52.347
00:15:56.247 : en:00:15:56.247
00:21:48.891 : en:00:21:48.891
00:29:50.372 : en:00:29:50.372
00:37:38.047 : en:00:37:38.047
00:44:09.605 : en:00:44:09.605
00:50:34.073 : en:00:50:34.073
01:00:37.133 : en:01:00:37.133
01:06:12.343 : en:01:06:12.343
01:11:40.379 : en:01:11:40.379
01:18:07.850 : en:01:18:07.850

Menu #2
00:00:00.054 : en:00:00:00.054
Category:Movies > Divx/Xvid
Lang:English  English
Total Size:1.15 GB
Info Hash:0f82830da4070ef335a664fd6c8c0f68b67de981
Added By:yadro
Date Added:22-06-2016 18:12:59
Views:22
Hits:26


Ratings:Not Yet Rated (Log in to rate it)

  


Tracker:



File List: 


Comments

No comments still posted

Latest Torrents
#Moms Lick Teens# ...
- [Size: 442.23 MB]

#Moms Lick Teens# ...
- [Size: 1.14 GB]

#Moms Lick Teens# ...
- [Size: 2.86 GB]

#Cum Fiesta# 12-06...
- [Size: 454.24 MB]

#Cum Fiesta# 12-06...
- [Size: 1.17 GB]


Search





Latest News
Torrent Trackers
Posted: 22-Jun-16

Become Uploader
Posted: 01-Feb-16

Welcome
Posted: 27-Jul-11


Poll


You must be logged in to view polls



Most Active
The.Walking.Dead.S...
- [S: 6,870 - L: 7,509]

The.Flash.2014.S03...
- [S: 8,346 - L: 4,160]

The.Flash.2014.S03...
- [S: 7,629 - L: 3,647]

The.Walking.Dead.S...
- [S: 6,126 - L: 4,771]

Shemale- [BobsTgir...
- [S: 9,365 - L: 1,054]

Redhead gets licke...
- [S: 51 - L: 9,682]

Redhead with sexy ...
- [S: 41 - L: 9,058]

The.Walking.Dead.S...
- [S: 1,905 - L: 6,757]

Asian babe gives h...
- [S: 99 - L: 7,997]

The.Flash.2014.S03...
- [S: 3,468 - L: 4,376]


Powered by NimzWebMediaPage Generated In 0.131193 secs.
mprt.cf -|- -|- RSS Feed -|- Feed Info